Author Topic: HISTORY OF MAKKAH AL MUKKARAMA(ORIGINAL VERSION)  (Read 412 times)

0 Members and 1 Guest are viewing this topic.

Offline ahmed

  • Sr. Member
  • *
  • Posts: 1305
  • Reputation: 10
  • Gender: Male
    • Email
HISTORY OF MAKKAH AL MUKKARAMA(ORIGINAL VERSION)
« on: August 15, 2010, 03:54 PM »
[/color]HISTORY OF MAKKAH AL MUKKARAMA(ORIGINAL VERSION)



Format : CDXA/MPEG-PS
File size : 598 MiB
Duration : 59mn 12s
Overall bit rate : 1 412 Kbps

Video
ID : 224 (0xE0)
Format : MPEG Video
Format version : Version 1
Format settings, Matrix : Default
Duration : 59mn 12s
Bit rate mode : Constant
Bit rate : 1 132 Kbps
Nominal bit rate : 1 150 Kbps
Width : 352 pixels
Height : 288 pixels
Display aspect ratio : 4:3
Frame rate : 25.000 fps
Scan type : Progressive
Bits/(Pixel*Frame) : 0.446
Stream size : 479 MiB (80%)

Audio
ID : 192 (0xC0)
Format : MPEG Audio
Format version : Version 1
Format profile : Layer 2
Duration : 59mn 12s
Bit rate mode : Constant
Bit rate : 224 Kbps
Channel(s) : 2 channels
Sampling rate : 44.1 KHz
Resolution : 16 bits
Stream size : 94.9 MiB (16%)

Code: [Select]
http://hotfile.com/dl/55775745/746589f/AVSEQ01.DAT.html[/size]


Pakistan Zindabad




Offline Era

  • Newbie
  • *
  • Posts: 46
  • Reputation: 0
Re: HISTORY OF MAKKAH AL MUKKARAMA(ORIGINAL VERSION)
« Reply #1 on: September 19, 2010, 12:34 PM »
 bohatshukria

Offline Leon

  • VIP Member
  • *
  • Posts: 6136
  • Reputation: 126
  • Gender: Male
  • Happy Ending
    • Hum Tum
Re: HISTORY OF MAKKAH AL MUKKARAMA(ORIGINAL VERSION)
« Reply #2 on: October 02, 2010, 11:09 AM »
 thumbsss
Tanhai Main Bethe Bethe Gum Ho Jata Hun
Main Aksar Main Nahi Rehta Tum Ho Jata Hun

Offline OLD MEN

  • Full Member
  • *
  • Posts: 396
  • Reputation: 0
  • Gender: Male
Re: HISTORY OF MAKKAH AL MUKKARAMA(ORIGINAL VERSION)
« Reply #3 on: July 02, 2011, 02:01 AM »
 sml bohatshukria